К списку форумов К списку тем
Регистрация    Правила    Главная форума    Поиск   
Имя: Пароль:
Рекомендовать в новости

просмотр видео в формате MTS на нетбуке - реально ли?

Гость
0 - 13.08.2013 - 09:28
Может немного не по адресу, но железячная ветка живее софтовой...
В общем прошу помощи и совета: Есть нетбук Asus 1015, 2 гига оперативы, на атоме N455.
Стоит там XP SP3. В общем все нормально работает, для офиса, инета, музычки, фильмов вполне хватает.
НО. Видео с нового фотика (Sony nex3) показывает с проблемами, звук косячится, изображение отстает от звука и подтормаживает и т.д.
видео формата MTS (типа HD качества и т.д.)
Дефрагментация, чистка темпов, корзины не улучшили ситуацию.
Стоит K-Lite 710 MegaPak
Почитал в инете - говорят что формат дюже тяжелый...
На таком компе вообще реально добиться нормального просмотра такого формата?
Стоит искать легкие плейеры, подбирать кодеки, переставлять систему и т.д. или железо уже в принципе не позволяет?



Гость
1 - 13.08.2013 - 09:54
Попробуй плеер http://mpc-hc.org/downloads/
Видео в формате MTS, а точнее M2TS обычно закодировано H264 или VC1(формат Microsoft, аналог H264). Современные видеочипы от AMD могут аппаратно воспроизводить их не используя CPU(DXVA). В MPC-HC нужно зайти настройки/встроенные фильтры/декодеры отметь все галочки с DXVA в названии. Но насчет интеловских чипсетов не проверял. Если при воспроизведении в MPC-HC в левом нижнем углу нет надписи "Воспроизведение [DXVA]" значит не судьба.
Вот еще почитай http://habrahabr.ru/post/136778/
Если заработает отпишись.
Гость
2 - 13.08.2013 - 14:08
У меня стоял уже mpc хоум синема в комплексе к-лайт пака но он более старый.
грохнул все плеейры и к-лайт, поставил последнюю версию мпк-хс, все равно косячит - на лицо рассогласованиие видео и аудиодорожек, причем с аудио он делает что-то вообще невообразимое, повторяет куски по 2 раза...
НО, интересный момент - загрузка процессора около 50%... так что стоит копать дальше, возможно решение существует и на это железо.
Гость
3 - 13.08.2013 - 15:00
Открой файл в MPC-HC, зайди в меню файл/свойства/mediaIndo скопируй инфо и выложи сюда. Хочу посмотреть что за файл такой.
Сколько весит кстати файл?
Гость
4 - 13.08.2013 - 15:07
General
ID : 0 (0x0)
Complete name : D:\Foto&pics\Неразобранное\2013.07.30-08.03 - Архыз\видяшки с камеры - Вадя\00008.MTS
Format : BDAV
Format/Info : Blu-ray Video
File size : 154 MiB
Duration : 1mn 15s
Overall bit rate mode : Variable
Overall bit rate : 17.1 Mbps
Maximum Overall bit rate : 18.0 Mbps

Video
ID : 4113 (0x1011)
Menu ID : 1 (0x1)
Format : AVC
Format/Info : Advanced Video Codec
Format profile : High@L4.0
Format settings, CABAC : Yes
Format settings, ReFrames : 2 frames
Codec ID : 27
Duration : 1mn 15s
Bit rate mode : Variable
Bit rate : 16.2 Mbps
Maximum bit rate : 16.0 Mbps
Width : 1 920 pixels
Height : 1 080 pixels
Display aspect ratio : 16:9
Frame rate : 25.000 fps
Color space : YUV
Chroma subsampling : 4:2:0
Bit depth : 8 bits
Scan type : Interlaced
Bits/(Pixel*Frame) : 0.312
Stream size : 145 MiB (94%)

Audio
ID : 4352 (0x1100)
Menu ID : 1 (0x1)
Format : AC-3
Format/Info : Audio Coding 3
Mode extension : CM (complete main)
Format settings, Endianness : Big
Codec ID : 129
Duration : 1mn 15s
Bit rate mode : Constant
Bit rate : 256 Kbps
Channel(s) : 2 channels
Channel positions : Front: L R
Sampling rate : 48.0 KHz
Bit depth : 16 bits
Compression mode : Lossy
Delay relative to video : -80ms
Stream size : 2.30 MiB (1%)

Text
ID : 4608 (0x1200)
Menu ID : 1 (0x1)
Format : PGS
Codec ID : 144
Duration : 1mn 14s
Delay relative to video : -80ms
Гость
5 - 13.08.2013 - 15:28
Контейнер MTS, видео H264.
Попробуй этот файл конвертировать в контейнер MKV или MP4 с сохранением качества.
VLC это умеет.
Открой VLC далее меню Media/Конвертировать, добавь файл. В нижнем выпадающем меню выбери Конвертировать, нажми кнопку с рисунком отверка и молоток, поставь галку на MKV, на вкладке Видео и Аудио отметь сохранять исходную дорожку. Нажми сохранить, убери галку Сохранить входной поток. Выбери конечный файл и нажми Начать.
После конвертации открой опять в MPC-HC и скопируй инфо.
Отпишись что получилось.
Гость
6 - 13.08.2013 - 16:09
сконвертился в файл с расширением .ps
В плейере показывает черный экран, но звук есть.

General
Unique ID : 170952144750418636109270711945170981350 (0x809C2F7A8441244CEB05952C5D7311E6)
Complete name : C:\Documents and Settings\User\Рабочий стол\123.ps
Format : Matroska
Format version : Version 2
File size : 93.6 MiB
Duration : 1mn 15s
Overall bit rate : 10.4 Mbps
Writing application : Lavf54.21.3
Writing library : Lavf54.21.3

Video
ID : 2
Format : AVC
Format/Info : Advanced Video Codec
Codec ID : V_MPEG4/ISO/AVC
Bit rate : 9 951 Kbps
Width : 1 920 pixels
Height : 1 088 pixels
Display aspect ratio : 16:9
Frame rate mode : Variable
Default : Yes
Forced : No

Audio
ID : 1
Format : AC-3
Format/Info : Audio Coding 3
Mode extension : CM (complete main)
Format settings, Endianness : Big
Codec ID : A_AC3
Duration : 1mn 15s
Bit rate mode : Constant
Bit rate : 256 Kbps
Channel(s) : 2 channels
Channel positions : Front: L R
Sampling rate : 48.0 KHz
Bit depth : 16 bits
Compression mode : Lossy
Delay relative to video : 160ms
Stream size : 2.30 MiB (2%)
Default : Yes
Forced : No
Гость
7 - 13.08.2013 - 16:10
Я так смотрю мораль вызревает что у тети сони шибко специфичный формат файлов?
Гость
8 - 13.08.2013 - 16:21
Ты короче как то не так сконвертировал!
У тебя видео должно было остаться неизмененным. Там по сути берется только видео и аудио дорожка и упаковывается в другой контейнер.
Цитата:
вкладке Видео и Аудио отметь сохранять исходную дорожку
Ты на вкладке Видео отметил этот пункт?
Гость
9 - 13.08.2013 - 16:24
"Ты на вкладке Видео отметил этот пункт?" - да.
Гость
10 - 13.08.2013 - 16:27
Сейчас еще раз открыл, посмотрел внимательно - там есть еще окна выбора битрейта (по умолчанию стоит "0" и частоты кадров - топять "0"
Гость
11 - 13.08.2013 - 16:27
И еще масштаб, ширина, высота - везде нули.
Сколько ставить?
Гость
12 - 13.08.2013 - 16:27
Цитата:
Сообщение от Flover Посмотреть сообщение
"Ты на вкладке Видео отметил этот пункт?" - да.
Странно!!! А сам исходный файл воспроизводится в VLC?
Гость
13 - 13.08.2013 - 16:30
исходный фйл воспроизводился - но как-то через задницу - дикая "кирпичизация изображения" с подмораживанием определенных областей.
Гость
14 - 13.08.2013 - 16:33
Цитата:
Сообщение от Flover Посмотреть сообщение
Сейчас еще раз открыл, посмотрел внимательно - там есть еще окна выбора битрейта (по умолчанию стоит "0" и частоты кадров - топять "0"
Эти параметры по сути не должны работать если отмечаешь Сохранять исходную дорожку
Он должен только брать потоки видео и аудио и переупаковывать в другой контейнер. И даже размер файла должен быть примерно одинаков, а у тебя почти в половину уменьшился.
Гость
15 - 13.08.2013 - 16:39
Если у тебя есть в наличии камера с которой снимал. Сними небольшой момент хотя бы 5 сек. чего нибудь (например пола в квартире и выложи где нибудь или пришли на E-mail). Я с ним поиграюсь и вынесу вердикт!
Гость
16 - 13.08.2013 - 16:44
Гм...
Вот уже со времен 500 целерона не заморачивался спецификой видео. Систему поставил, кодек пак накатил - все включается, проигрывает...
Даже не вникал какие там расширения, типы, кодеки и т.д.
.
Придется вникать :(
Гость
17 - 13.08.2013 - 16:45
Ivan_1234 - 15 ОК. Вечером. Спасибо.
Гость
18 - 13.08.2013 - 16:49
Нашел здесь маленький файл.
http://zalil.ru/34675692
Гость
19 - 13.08.2013 - 16:55
Я как то год назад пытался конвертировать рип с Blu-Ray (размер 20 Гб) был он в контейнере M2TS, а видео в VC1. Сам исходный файл тоже очень коряво воспроизводился. В MeeGUI были проблемы с импортом, но все же как то получилось. Прикол в том что ТВ Самсунг в контейнере M2TS его хоть и воспроизводил, но с тормозами, а в MKV c тем же размером нормально.
Гость
20 - 13.08.2013 - 17:06
У меня проблема относительная - на большом компе показывает нормально тот же хоум синема из комплекса к-лайт пак. Но там совсем другая мощность (кора 4 головая вроде, 8 гигов оперативы и т.д.).
Сам фотик мне очень нравится...
Но вот мой любимый ноут, который всегда со мной в сумке видео не кажет... а так хочется иногда показать родственникам дочку или приятелям как ездил на ниве в горах и т.д. А тут облом-с.
:(
Гость
21 - 13.08.2013 - 17:12
Действительно VLC как то не так конвертирует.
Попробуй MeGUI.
Открой там Tools/HD Streams Extractor разбей файл на дорожки (аудио, видео, субтитры), потом собери его в MKV через Tools/Muxer/Mkv muxer
У меня получилось только что.
Гость
22 - 13.08.2013 - 17:33
В общем почитал я в инете.
Видеоядро GMA3150 не поддерживает DXVA!
Надо было тебе брать нетбук на платформе AMD. У них с FullHD нет проблем. У самого есть на AMD E-350, нормально воспроизводит Avatar на 20Гб.
Гость
23 - 14.08.2013 - 08:21
http://ru.wikipedia.org/wiki/CoreAVC
Цитата:
CoreAVC — проприетарный видеокодек для декодирования H.264/MPEG-4 AVC (Advanced Video Coding) видеоформата.
Декодер в настоящий момент является одним из самых быстрых программных декодеров
Поищи в интернете, при установке можешь не устанавливать Haali Media Spliter и проигрывать через MPC-HC у него своих сплитеров полно, в настройках MPC-HC раздел декодеры убери галочки с 2-х H264 декодеров. При воспроизведении в меню Воспроизведение/Фильтры должен быть CoreAVC Video Decoder.
Отпишись пропали ли тормоза.
Гость
24 - 14.08.2013 - 08:39
Забрал вчера вечером камеру и пошел по другому пути:
покопался в настройках и нашел там режим "MP4, 1440х1080 12M".
Файл играется нормально, без тормозов. Визуально на экране размеры старого "1920х1080" и нового "1440х1080" совпадают.

выкладываю свойства файла:
General
Complete name : C:\Documents and Settings\User\Рабочий стол\MAH05206.MP4
Format : MPEG-4
Format profile : Sony PSP
Codec ID : MSNV
File size : 36.1 MiB
Duration : 24s 960ms
Overall bit rate mode : Variable
Overall bit rate : 12.1 Mbps
Encoded date : UTC 2013-08-14 09:15:21
Tagged date : UTC 2013-08-14 09:15:46

Video
ID : 1
Format : AVC
Format/Info : Advanced Video Codec
Format profile : Main@L4.0
Format settings, CABAC : Yes
Format settings, ReFrames : 2 frames
Codec ID : avc1
Codec ID/Info : Advanced Video Coding
Duration : 24s 960ms
Bit rate mode : Variable
Bit rate : 12.0 Mbps
Maximum bit rate : 16.0 Mbps
Width : 1 440 pixels
Height : 1 080 pixels
Display aspect ratio : 16:9
Frame rate mode : Constant
Frame rate : 25.000 fps
Color space : YUV
Chroma subsampling : 4:2:0
Bit depth : 8 bits
Scan type : Progressive
Bits/(Pixel*Frame) : 0.309
Stream size : 35.7 MiB (99%)
Encoded date : UTC 2013-08-14 09:15:21
Tagged date : UTC 2013-08-14 09:15:46

Audio
ID : 2
Format : AAC
Format/Info : Advanced Audio Codec
Format profile : LC
Codec ID : 40
Duration : 24s 960ms
Bit rate mode : Constant
Bit rate : 128 Kbps
Channel(s) : 2 channels
.
Я в таком режиме что-то существенное теряю в качестве? На экране нетбука все ок... Но под боком нет большого экрана чтобы проверить. И немного смущает разрешение 1440 - это наверно какая-то интерполяция идет в 1920?
Гость
25 - 14.08.2013 - 09:46
Ну в общем немного теряешь, разрешение по горизонтали уменьшается. Изображение становится формата 4:3, как на ТВ. Плееры на компьютере могут автоматически растягивать изображение, но на FullHD TV возможны проблемы.
Если есть в настройках камеры формат 1280х720 лучше его используй.
Гость
26 - 15.08.2013 - 21:27
Zoom player (free) http://www.inmatrix.com/ показал отрывок из 18 во всей красе. Никаких дополнительных кодек паков
Гость
27 - 15.08.2013 - 23:58
И IrfanView тоже открыл
Гость
28 - 16.08.2013 - 08:01
на ATOM N455 и GMA3150?
Гость
29 - 16.08.2013 - 08:58
28 Flover
Не-не. Я позже увидел, что на стационаре у тебя тоже читается. У меня слабенький АМД
Гость
30 - 22.09.2013 - 14:53
Этож для инет-серфинга сделан Процик походу там слабый.Был у меня давно атом одноядерный с частотой 1600MHz.Пробовал всякие там МКV смотреть.Плавное неторопливо-ленивое движение видео с отставанием.Сказал пока тупица и собрал бодрый настольнвй комп.
Гость
31 - 22.09.2013 - 15:11
Те же проблеммы и то же самое решение http://www.rom.by/forum/ECS_G31T-M7_...tsja_Celeron_D
Гость
32 - 22.09.2013 - 15:12
Тьфу не вту тему написал.Я о не работающих старых процах на новых мамках писал
Гость
33 - 22.09.2013 - 15:14
http://www.rom.by/forum/ECS_G31T-M7_...tsja_Celeron_D


К списку вопросов
Опции темы Поиск в этой теме
Поиск в этой теме:

Расширенный поиск




Copyright ©, Все права защищены